H8 Plus 4K, HDR

Olyan kérdéseket várunk ide, amelyek vélhetőleg csak a H8 Plus-szal függnek össze, annak valamilyen hardveres tulajdonsága vagy egyedi firmware-e miatt.
  • Szerző
  • Üzenet
Offline

oszy

  • Hozzászólások: 9
  • Csatlakozott: 2019.06.25. 15:19

H8 Plus 4K, HDR

Hozzászólás2019.07.01. 09:00

Sziasztok!

Vásároltam használtan egy H8 plus-t. Viszont nem olvastam előre utána, hogy nem képes a HDR képet továbbítani. Ezzel még meg is békélnék. Viszont azzal nem, hogy le sem játszik bizonyos 4K tartalmakat!!

Elvileg ezek az adatok, amikkel nem birkózik meg:

Input #0, matroska,webm, from 'Planet.Earth.II.2016.S01.UHD.BluRay.2160p.DTS-HD.MA.5.1.HUN.HEVC.REMUX-emre/Planet.Earth.II.S01E01.Islands.2160p.DTS-HD.MA.5.1.HEVC.REMUX-FraMeSToR.mkv':
Metadata:
title : Planet Earth II S01E01 4K
Duration: 00:53:08.36, start: 0.000000, bitrate: N/A
Chapter #0.0: start 0.000000, end 746.245000
Metadata:
title : 00:00:00.000
Chapter #0.1: start 746.245000, end 1129.253000
Metadata:
title : 00:12:26.245
Chapter #0.2: start 1129.253000, end 2025.023000
Metadata:
title : 00:18:49.253
Chapter #0.3: start 2025.023000, end 2584.582000
Metadata:
title : 00:33:45.023
Chapter #0.4: start 2584.582000, end 3188.367000
Metadata:
title : 00:43:04.582
Stream #0.0: Video: hevc (Main 10), yuv420p10le, 3840x2160 [PAR 1:1 DAR 16:9], 23.98 fps, 1k tbn, 23.98 tbc (default)
Metadata:
BPS : 43014185
BPS-eng : 43014185
DURATION : 00:53:05.808000000
DURATION-eng : 00:53:05.808000000
NUMBER_OF_FRAMES: 76383
NUMBER_OF_FRAMES-eng: 76383
NUMBER_OF_BYTES : 17129367208
NUMBER_OF_BYTES-eng: 17129367208
_STATISTICS_WRITING_APP: mkvmerge v17.0.0 ('Be Ur Friend') 64-bit
_STATISTICS_WRITING_APP-eng: mkvmerge v17.0.0 ('Be Ur Friend') 64-bit
_STATISTICS_WRITING_DATE_UTC: 2017-12-31 08:34:25
_STATISTICS_WRITING_DATE_UTC-eng: 2017-12-31 08:34:25
_STATISTICS_TAGS: BPS DURATION NUMBER_OF_FRAMES NUMBER_OF_BYTES
_STATISTICS_TAGS-eng: BPS DURATION NUMBER_OF_FRAMES NUMBER_OF_BYTES
Stream #0.1(hun): Audio: ac3, 44100 Hz, stereo, fltp, 384 kb/s (default)
Metadata:
BPS : 383999
BPS-eng : 383999
DURATION : 00:53:08.367000000
DURATION-eng : 00:53:08.367000000
NUMBER_OF_FRAMES: 91541
NUMBER_OF_FRAMES-eng: 91541
NUMBER_OF_BYTES : 153041606
NUMBER_OF_BYTES-eng: 153041606
_STATISTICS_WRITING_APP: mkvmerge v17.0.0 ('Be Ur Friend') 64-bit
_STATISTICS_WRITING_APP-eng: mkvmerge v17.0.0 ('Be Ur Friend') 64-bit
_STATISTICS_WRITING_DATE_UTC: 2017-12-31 08:34:25
_STATISTICS_WRITING_DATE_UTC-eng: 2017-12-31 08:34:25
_STATISTICS_TAGS: BPS DURATION NUMBER_OF_FRAMES NUMBER_OF_BYTES
_STATISTICS_TAGS-eng: BPS DURATION NUMBER_OF_FRAMES NUMBER_OF_BYTES
Stream #0.2(eng): Audio: dca (DTS-HD MA), 48000 Hz, 5.1, fltp, 1536 kb/s
Metadata:
title : DTS-HD MA 5.1
BPS : 2300956
BPS-eng : 2300956
DURATION : 00:53:04.107000000
DURATION-eng : 00:53:04.107000000
NUMBER_OF_FRAMES: 298510
NUMBER_OF_FRAMES-eng: 298510
NUMBER_OF_BYTES : 915811628
NUMBER_OF_BYTES-eng: 915811628
_STATISTICS_WRITING_APP: mkvmerge v17.0.0 ('Be Ur Friend') 64-bit
_STATISTICS_WRITING_APP-eng: mkvmerge v17.0.0 ('Be Ur Friend') 64-bit
_STATISTICS_WRITING_DATE_UTC: 2017-12-31 08:34:25
_STATISTICS_WRITING_DATE_UTC-eng: 2017-12-31 08:34:25
_STATISTICS_TAGS: BPS DURATION NUMBER_OF_FRAMES NUMBER_OF_BYTES
_STATISTICS_TAGS-eng: BPS DURATION NUMBER_OF_FRAMES NUMBER_OF_BYTES
Stream #0.3(eng): Subtitle: pgssub
Metadata:
title : English (SDH)
BPS : 25099
BPS-eng : 25099
DURATION : 00:52:18.969000000
DURATION-eng : 00:52:18.969000000
NUMBER_OF_FRAMES: 710
NUMBER_OF_FRAMES-eng: 710
NUMBER_OF_BYTES : 9848202
NUMBER_OF_BYTES-eng: 9848202
_STATISTICS_WRITING_APP: mkvmerge v17.0.0 ('Be Ur Friend') 64-bit
_STATISTICS_WRITING_APP-eng: mkvmerge v17.0.0 ('Be Ur Friend') 64-bit
_STATISTICS_WRITING_DATE_UTC: 2017-12-31 08:34:25
_STATISTICS_WRITING_DATE_UTC-eng: 2017-12-31 08:34:25
_STATISTICS_TAGS: BPS DURATION NUMBER_OF_FRAMES NUMBER_OF_BYTES
_STATISTICS_TAGS-eng: BPS DURATION NUMBER_OF_FRAMES NUMBER_OF_BYTES
# avprobe output
Offline
Avatar

Beast

  • Hozzászólások: 1241
  • Csatlakozott: 2016.06.10. 09:18

Re: H8 Plus 4K, HDR

Hozzászólás2019.07.01. 09:34

Milyen alkalmazás nem játsza le? Próbáld másikkal!
HiMedia.hu adminisztrátor
Offline

oszy

  • Hozzászólások: 9
  • Csatlakozott: 2019.06.25. 15:19

Re: H8 Plus 4K, HDR

Hozzászólás2019.07.01. 11:15

Beast írta:Milyen alkalmazás nem játsza le? Próbáld másikkal!


A media center el sem indul, vagyis elindul, de nem kezdi el a lejátszást. KODI-nál pedig csak hang van.
Offline
Avatar

Beast

  • Hozzászólások: 1241
  • Csatlakozott: 2016.06.10. 09:18

Re: H8 Plus 4K, HDR

Hozzászólás2019.07.01. 14:05

oszy írta:...KODI-nál pedig csak hang van.

Ez egy HDR10-es film (szerintem az, mert nekem is HDR-ben van meg ugyanez)? Mert akkor értem, hogy nem megy, de ha menni, akkor is fakó lenne a kép. Az, hogy a KODI is kép nélkül játszik el valamit, az sokat elárul: ezzel, és bármilyen HDR-es fájllal kár erőlködni ezen a lejátszón.
HiMedia.hu adminisztrátor

Vissza: H8 Plus specifikus kérdések

Ki van itt

Jelenlévő fórumozók: nincs regisztrált felhasználó valamint 1 vendég

cron
.